(navigation image)
Home Audio Books & Poetry | Community Audio | Computers & Technology | Grateful Dead | Live Music Archive | Music, Arts & Culture | Netlabels | News & Public Affairs | Non-English Audio | Podcasts | Radio Programs | Spirituality & Religion | The Shady Trees
Search: Advanced Search
Anonymous User (login or join us)
Upload

Listen to audio

item image
Run time: 1:06:33

Stream (help[help])

VBR M3U
MP3 via M3U

Play / Download (help[help])

VBR ZIP

Ogg Vorbis

Lossless zip


All Files: HTTPS Torrent (2/0)

Resources

Bookmark

Victor KrummenacherVictor Krummenacher Live at Pappy & Harriet's Pioneertown Palace (indoor stage) on 2012-09-15 (September 15, 2012)

something has gone horribly wrong 8-p
Prefer flash? · Embed · Questions/Feedback?


Collection: VictorKrummenacher
Band/Artist: Victor Krummenacher
Date: September 15, 2012 (check for other copies)
Venue: Pappy & Harriet's Pioneertown Palace (indoor stage)
Location: Pioneertown CA USA

Taped by: morst
Transferred by: morst & digitalist0ne
Keywords: 24-bit high resolution version - NOT for CD burning; Live Concert; Pioneertown; Pitown; Pi-Town; Crampout; Campout; Camper Van Beethoven; Cracker; The Ocho


Description

01. intro
02. I Ain't Got No Home In This World Anymore
03. Long Way Home
04. Summertime
05. Love Of My Dreams
06. New Highway
07. The Cock Crows At Sunrise
08. Nocturne
09. In Queen City The Girls Are Weeping
10. My Baby's Brown Hair
11. recordist's signout

band intros at end of track 07

Notes

Victor Krummenacher
Saturday, September 15, 2012
Pioneertown CA USA
Pappy & Harriet's Pioneertown Palace (indoor stage)

8th Annual Cracker/ Camper Van Beethoven family reunion campout

band intros at end of track 07

SHNTOOL LEN:
length expanded size cdr WAVE problems fmt ratio filename
7:24.676 128066708 B cxx -- ---xx flac 0.7101 VictorKrummenacher2012-09-15t01.flac
6:03.834 104784164 B cxx -- ---xx flac 0.6963 VictorKrummenacher2012-09-15t02.flac
4:01.617 69585614 B cxx -- ---xx flac 0.7263 VictorKrummenacher2012-09-15t03.flac
4:11.281 72369050 B cxx -- ---xx flac 0.6501 VictorKrummenacher2012-09-15t04.flac
3:54.340 67490078 B cxx -- ---xx flac 0.6955 VictorKrummenacher2012-09-15t05.flac
6:47.510 117362858 B cxx -- ---xx flac 0.6948 VictorKrummenacher2012-09-15t06.flac
6:43.457 116195774 B cxx -- ---xx flac 0.6871 VictorKrummenacher2012-09-15t07.flac
7:19.100 126460814 B cxx -- ---xx flac 0.7003 VictorKrummenacher2012-09-15t08.flac
6:33.090 113210054 B cxx -- ---xx flac 0.6955 VictorKrummenacher2012-09-15t09.flac
12:27.538 215290976 B cxx -- ---xx flac 0.6843 VictorKrummenacher2012-09-15t10.flac
1:05.957 18995618 B cxx -- ---xx flac 0.6196 VictorKrummenacher2012-09-15t11.flac
66:32.400 1149811708 B 0.6924 (11 files)

-~-~-~-~-~-~-~-~-~-~-~-~-~-~-~-~-~-~-~-~-~-~-~-~-~-
The Soundscape Preservation Society (Founded 1991)
http://www.iamtypingwithonefinger.com/SPS.html
-~-~-~-~-~-~-~-~-~-~-~-~-~-~-~-~-~-~-~-~-~-~-~-~-~-

Individual Files

Audio Files 24bit Flac VBR MP3 Ogg Vorbis
intro 86.7 MB
9.0 MB
4.4 MB
I Ain't Got No Home In This World Anymore 69.6 MB
7.4 MB
3.6 MB
Long Way Home 48.2 MB
5.1 MB
2.4 MB
Summertime 44.9 MB
5.2 MB
2.5 MB
Love Of My Dreams 44.8 MB
5.0 MB
2.3 MB
New Highway 77.8 MB
8.4 MB
4.0 MB
The Cock Crows At Sunrise 76.1 MB
8.6 MB
4.0 MB
Nocturne 84.5 MB
9.3 MB
4.3 MB
In Queen City The Girls Are Weeping 75.1 MB
8.3 MB
3.8 MB
My Baby's Brown Hair 140.5 MB
15.7 MB
7.5 MB
recordist's signout 11.2 MB
1.7 MB
747.6 KB
Image Files JPEG JPEG Thumb
P3410510.JPG 571.2 KB
5.9 KB
Information FormatSize
VictorKrummenacher2012-09-15.ffp Flac FingerPrint 842.0 B
VictorKrummenacher2012-09-15.md5 Checksums 849.0 B
VictorKrummenacher2012-09-15_files.xml Metadata [file]
VictorKrummenacher2012-09-15_meta.xml Metadata 4.6 KB
Other Files Text Archive BitTorrent
VictorKrummenacher2012-09-15-info.txt 3.6 KB
VictorKrummenacher2012-09-15_archive.torrent 42.9 KB

Be the first to write a review
Downloaded 88 times
Reviews